Descargar Stoker [BR-Screener HQ/Cast][Intriga][2013][DD][UL] Gratis

  • PELICULAS Y SERIES | HACE 1 AñO
Stoker [BR-Screener HQ/Cast][Intriga][2013][DD][UL] Dvdrip Latino 1 Link, Descargar Stoker [BR-Screener HQ/Cast][Intriga][2013][DD][UL] 1 link Mega, Stoker [BR-Screener HQ/Cast][Intriga][2013][DD][UL] DVD Full Latino peliculasyonkis, Stoker [BR-Screener HQ/Cast][Intriga][2013][DD][UL] Cuevana.tv, Stoker [BR-Screener HQ/Cast][Intriga][2013][DD][UL] pelicula completa, Stoker [BR-Screener HQ/Cast][Intriga][2013][DD][UL] HD 1080P 720P Buena Calidad putlocker, Stoker [BR-Screener HQ/Cast][Intriga][2013][DD][UL] latino HD Taringa, Stoker [BR-Screener HQ/Cast][Intriga][2013][DD][UL] Bluray Brrip 1 Link, Stoker [BR-Screener HQ/Cast][Intriga][2013][DD][UL] Español Gratis, Stoker [BR-Screener HQ/Cast][Intriga][2013][DD][UL] Torrent Español
>>Enlace para Descargar Descargar Stoker [BR-Screener HQ/Cast][Intriga][2013][DD][UL] Gratis 1 Link<<






Título Original: Stoker
Director: Park Chan-wook
Duración: 01:39:00
Estreno o Año: 10/05/2013
Género: Intriga | Thriller | Terror
País: Estados Unidos, Reino Unido
Distribuidora/Productora: Fox Searchlight Pictures, Scott Free Productions
Nicole Kidman, Mia Wasikowska, Dermot Mulroney, Matthew Goode, Jacki Weaver, Lucas Till, Alden Ehrenreich, Ralph Brown, Judith Godrèche, Phyllis Somerville, Wendy Keeling, Harry P. Castros, William Ryan Watson, Lauren E. Roman, Peg Allen

AVI 1,45 Gb
Servidor: Uploaded.to



Enlaces de Descarga

General
Complete name : 0104.avi
Format : AVI
Format/Info : Audio Video Interleave
File size : 1.45 GiB
Duration : 1h 39mn
Overall bit rate : 2 090 Kbps
Movie name : Stoker
Writing application : VirtualDubMod 1.5.10.2 (build 2540/release)
Writing library : VirtualDubMod build 2540/release
Video
ID : 0
Format : MPEG-4 Visual
Format profile : Advanced Simple@L5
Format settings, BVOP : 2
Format settings, QPel : No
Format settings, GMC : No warppoints
Format settings, Matrix : Default (MPEG)
Codec ID : XVID
Codec ID/Hint : XviD
Duration : 1h 39mn
Bit rate : 1 953 Kbps
Width : 720 pixels
Height : 304 pixels
Display aspect ratio : 2.35:1
Frame rate : 23.976 fps
Color space : YUV
Chroma subsampling : 4:2:0
Bit depth : 8 bits
Scan type : Progressive
Compression mode : Lossy
Bits/(Pixel*Frame) : 0.372
Stream size : 1.35 GiB (93%)
Writing library : XviD 1.2.1 (UTC 2008-12-04)
Audio
ID : 1
Format : MPEG Audio
Format version : Version 1
Format profile : Layer 3
Mode : Joint stereo
Codec ID : 55
Codec ID/Hint : MP3
Duration : 1h 38mn
Bit rate mode : Constant
Bit rate : 128 Kbps
Channel(s) : 2 channels
Sampling rate : 48.0 KHz
Compression mode : Lossy
Stream size : 90.6 MiB (6%)
Alignment : Aligned on interleaves
Interleave, duration : 42 ms (1.00 video frame)
Interleave, preload duration : 504 ms




>>Enlace para Descargar Descargar Stoker [BR-Screener HQ/Cast][Intriga][2013][DD][UL] Gratis 1 Link<<

http://www.dailymotion.com/swf/video/xxbk7h







Download Stoker (BR-Screener HQ)
Descargar r Stoker [BR-Screener HQ/Cast][Intriga][2013][DD][UL] Gratis 1 link Gratis
145 Visitas
Dar puntos
+10
0 Puntos
Para poder comentar necesitas Registrarte. O ya tienes usuario?, Iniciar Sesión!
No hay comentarios. ¡Sé el primero!
Autor
Ver perfil de lidia54 lidia54
Hombre Uploader Uploader  Seguir  Mensaje
2440 30 4
Nuevo Mensaje
Para:
Titulo: