Descargar Fast Money 1996 (en)(sub)(mega)(dvdrip) 2013

  • PELICULAS Y SERIES | HACE 8 MESES
Fast Money 1996 ensub Dvdrip Latino 1 Link, Descargar Fast Money 1996 ensub 1 link Mega, Fast Money 1996 ensub DVD Full Latino peliculasyonkis, Fast Money 1996 ensub Cuevana.tv, Fast Money 1996 ensub pelicula completa, Fast Money 1996 ensub HD 1080P 720P Buena Calidad putlocker, Fast Money 1996 ensub latino HD Taringa, Fast Money 1996 ensub Bluray Brrip 1 Link, Fast Money 1996 ensub Español Gratis, Fast Money 1996 ensub Torrent Español
>>Enlace para Descargar Descargar Fast Money 1996 (en)(sub)(mega)(dvdrip) 2013 1 Link<<

Fast Money 1996

Saludos,

Bienvenidos a mi nuevo post.  Esta vez les traigo una pelicula de 1996 llamada Fast Money.  Es una película rara, difícil de conseguir y me costó un mundo terminar los subtítulos ya que la peli no es muy conocida.

Es del tipo de película de los 90 que no tenía muchos efectos especiales ni nada por el estilo.  

Detesto admitir que la vi el año de estreno y recuerdo que era mucho mejor de lo que me pareció ahora pero en fin.  Estoy seguro que no la han visto.

¡Ojalá la disfreten!



General
Complete name                  : Fast.Money.1996.mkv
Format                         : Matroska
Format version                 : Version 4 / Version 2
File size                      : 1.37 GiB
Duration                       : 1h 28mn
Overall bit rate               : 2 209 Kbps
Encoded date                   : UTC 2013-08-14 03:41:47
Writing application            : mkvmerge v6.2.0 ('Promised Land') built on Apr 28 2013 12:22:01
Writing library                : libebml v1.3.0 + libmatroska v1.4.0

Video
ID                             : 1
Format                         : MPEG-4 Visual
Format profile                 : Advanced Simple@L5
Format settings, BVOP          : Yes
Format settings, QPel          : No
Format settings, GMC           : No warppoints
Format settings, Matrix        : Custom
Codec ID                       : V_MS/VFW/FOURCC / XVID
Codec ID/Hint                  : XviD
Duration                       : 1h 28mn
Bit rate                       : 2 037 Kbps
Width                          : 720 pixels
Height                         : 544 pixels
Display aspect ratio           : 4:3
Frame rate mode                : Constant
Frame rate                     : 25.000 fps
Color space                    : YUV
Chroma subsampling             : 4:2:0
Bit depth                      : 8 bits
Scan type                      : Progressive
Compression mode               : Lossy
Bits/(Pixel*Frame)             : 0.208
Stream size                    : 1.26 GiB (92%)
Writing library                : XviD 1.1.2 (UTC 2006-11-01)
Default                        : Yes
Forced                         : No

Audio
ID                             : 2
Format                         : MPEG Audio
Format version                 : Version 1
Format profile                 : Layer 3
Mode                           : Joint stereo
Mode extension                 : MS Stereo
Codec ID                       : A_MPEG/L3
Codec ID/Hint                  : MP3
Duration                       : 1h 28mn
Bit rate mode                  : Constant
Bit rate                       : 128 Kbps
Channel count                  : 2 channels
Sampling rate                  : 48.0 KHz
Compression mode               : Lossy
Stream size                    : 81.0 MiB (6%)
Default                        : Yes
Forced                         : No

>>Enlace para Descargar Descargar Fast Money 1996 (en)(sub)(mega)(dvdrip) 2013 1 Link<<

Subtitulos

Lo siento por poner el link de este modo pero el aporte es propio incluyendo los subtitulos así que voy a proteger mis links como pueda.

Es un .dlc alojado en sharebeast.  Cuando lo descarguen lo abren con Jdownloader y la película esta alojada en mega.
Enlaces De Descarga
http://www.sharebeast.com/qaltu8e6puzx

Descargar r Fast Money 1996 (en)(sub)(mega)(dvdrip) 2013 1 link Gratis
145 Visitas
Dar puntos
+10
0 Puntos
Para poder comentar necesitas Registrarte. O ya tienes usuario?, Iniciar Sesión!
No hay comentarios. ¡Sé el primero!
Autor
Ver perfil de andy andy
Hombre Uploader Uploader  Seguir  Mensaje
461 29 4
Nuevo Mensaje
Para:
Titulo: