Frozen 2013 DVDSCR x264 TiTAN

  • PELICULAS Y SERIES | HACE 7 MESES
Frozen 2013 SCR x264 TiTAN Dvdrip Latino 1 Link, Descargar Frozen 2013 SCR x264 TiTAN 1 link Mega, Frozen 2013 SCR x264 TiTAN DVD Full Latino peliculasyonkis, Frozen 2013 SCR x264 TiTAN Cuevana.tv, Frozen 2013 SCR x264 TiTAN pelicula completa, Frozen 2013 SCR x264 TiTAN HD 1080P 720P Buena Calidad putlocker, Frozen 2013 SCR x264 TiTAN latino HD Taringa, Frozen 2013 SCR x264 TiTAN Bluray Brrip 1 Link, Frozen 2013 SCR x264 TiTAN Español Gratis, Frozen 2013 SCR x264 TiTAN Torrent Español

Frozen 2013 DVDSCR x264 AC3 TiTAN File Size: 1,40GBINFORMATION
General Format : Matroska Format version : Version 2 File size : 1.40 GiB Duration : 1h 40mn Overall bit rate : 1 986 Kbps Encoded date : UTC 2014-01-07 15:42:07 Writing application : mkvmerge v6.5.0 ('Isn't she lovely'wink.gif built on Oct 20 2013 12:50:05 Writing library : libebml v1.3.0 + libmatroska v1.4.1 Video ID : 1 Format : AVC Format/Info : Advanced Video Codec Format profile : High@L3.0 Format settings, CABAC : Yes Format settings, ReFrames : 4 frames Codec ID : V_MPEG4/ISO/AVC Duration : 1h 40mn Bit rate : 1 600 Kbps Width : 720 pixels Height : 304 pixels Display aspect ratio : 2.35:1 Frame rate mode : Constant Frame rate : 29.970 fps Color space : YUV Chroma subsampling : 4:2:0 Bit depth : 8 bits Scan type : Progressive Bits/(Pixel*Frame) : 0.244 Stream size : 1.10 GiB (79%) Writing library : x264 core 138 r2358 9e941d1 Default : Yes Forced : No Audio ID : 2 Format : AC-3 Format/Info : Audio Coding 3 Mode extension : CM (complete main) Format settings, Endianness : Big Codec ID : A_AC3 Duration : 1h 40mn Bit rate mode : Constant Bit rate : 384 Kbps Channel(s) : 6 channels Channel positions : Front: L C R, Side: L R, LFE Sampling rate : 48.0 KHz Bit depth : 16 bits Compression mode : Lossy Stream size : 277 MiB (19%) Default : Yes Forced : No
SCREENSHOTS
DOWNLOAD WITHRAPIDGATOR
>>Enlace para Descargar Frozen 2013 DVDSCR x264 TiTAN 1 Link<<

http://rapidgator.net/file/24895f4c54909f62cf29881b4f80394e/Frozen.2013.DVDSCR.x264.AC3.TiTAN.part1.rar.html http://rapidgator.net/file/6cab2b1f43e837edcab4de485d5797e1/Frozen.2013.DVDSCR.x264.AC3.TiTAN.part2.rar.html Single file http://rapidgator.net/file/ecbfd28cb15bad00a83511169c63817d/Frozen.2013.DVDSCR.x264.AC3.TiTAN.mkv.html
Descargar Frozen 2013 DVDSCR x264 TiTAN 1 link Gratis
256 Visitas
Dar puntos
+10
0 Puntos
Para poder comentar necesitas Registrarte. O ya tienes usuario?, Iniciar Sesión!
No hay comentarios. ¡Sé el primero!
Autor
Ver perfil de nathy_15 nathy_15
Hombre Uploader Uploader  Seguir  Mensaje
5538 59 4
Relacionados
Nuevo Mensaje
Para:
Titulo: