El Origen De Los Guardianes (2012) 3D SBS BDRip 1080p Español Latino/Ingles

  • PELICULAS Y SERIES | HACE 1 AñO
El Origen De Los Guardianes Dvdrip Latino 1 Link, Descargar El Origen De Los Guardianes 1 link Mega, El Origen De Los Guardianes DVD Full Latino peliculasyonkis, El Origen De Los Guardianes Cuevana.tv, El Origen De Los Guardianes pelicula completa, El Origen De Los Guardianes HD 1080P 720P Buena Calidad putlocker, El Origen De Los Guardianes latino HD Taringa, El Origen De Los Guardianes Bluray Brrip 1 Link, El Origen De Los Guardianes Español Gratis, El Origen De Los Guardianes Torrent Español



El origen de los guardianes' es una aventura épica y mágica que cuenta la historia de Santa Claus, el Conejo de Pascua, el Hada de los Dientes y Jack Escarcha - personajes legendarios con desconocidas habilidades extraordinarias. Cuando un espíritu maligno, conocido como Sombra, decide inundar de miedo los corazones de los niños, los Guardianes inmortales unen sus fuerzas para proteger los deseos, las creencias y la imaginación de los niños.

Título: El origen de los guardianes
Título original: Rise of the Guardians
País: USA
Estreno en USA: 21/11/2012
Estreno en España: 30/11/2012
Productora: DreamWorks Animation
Director: Peter Ramsey, William Joyce
Guión: David Lindsay-Abaire (Sobre la obra de William Joyce)
Reparto: (Voces de) Chris Pine, Hugh Jackman, Jude Law, Alec Baldwin, Isla Fisher
Calificación: Apta para todos los públicos


Cómenzar Descarga 1 Link



General Unique ID : 192731741224311939168260260370295845120 (0x90FEC87D8D71F74181CAFEADCE187100) Complete name : El Origen de los Guardaines 2012 3D SBS 1080P Latino.mkv Format : Matroska Format version : Version 2 File size : 8.48 GiB Duration : 1h 37mn Overall bit rate : 12.5 Mbps Movie name : wWw.Chamako.Net - El Origen de los Guardianes 2012 3D SBS 1080P Latino Encoded date : UTC 2013-02-28 13:36:51 Writing application : mkvmerge v3.4.0 ('Rapunzel') built on May 15 2010 09:38:20 Writing library : libebml v0.8.0 + libmatroska v0.9.0 Video ID : 1 Format : AVC Format/Info : Advanced Video Codec Format profile : High@L4.1 MultiView_Count : 2 MultiView_Layout : Right Eye Format settings, CABAC : Yes Format settings, ReFrames : 4 frames Codec ID : V_MPEG4/ISO/AVC Duration : 1h 37mn Bit rate : 10.1 Mbps Width : 1 920 pixels Height : 1 080 pixels Display aspect ratio : 16:9 Frame rate mode : Constant Frame rate : 23.976 fps Color space : YUV Chroma subsampling : 4:2:0 Bit depth : 8 bits Scan type : Progressive Bits/(Pixel*Frame) : 0.203 Stream size : 6.85 GiB (81%) Title : wWw.Chamako.Net - El Origen de los Guardianes 2012 3D SBS 1080P Writing library : x264 core 129 r2245 bc13772 Encoding settings : cabac=1 / ref=4 / deblock=1:-3:-3 / analyse=0x3:0x113 / me=umh / subme=9 / psy=1 / psy_rd=1.00:0.15 / mixed_ref=1 / me_range=16 / chroma_me=1 / trellis=1 / 8x8dct=1 / cqm=0 / deadzone=21,11 / fast_pskip=1 / chroma_qp_offset=-3 / threads=12 / lookahead_threads=2 / sliced_threads=0 / nr=0 / decimate=1 / interlaced=0 / bluray_compat=0 / constrained_intra=0 / bframes=6 / b_pyramid=2 / b_adapt=1 / b_bias=0 / direct=3 / weightb=1 / open_gop=0 / weightp=2 / keyint=250 / keyint_min=23 / scenecut=40 / intra_refresh=0 / rc_lookahead=40 / rc=crf / mbtree=1 / crf=18.0 / qcomp=0.60 / qpmin=10 / qpmax=69 / qpstep=4 / vbv_maxrate=40000 / vbv_bufsize=30000 / crf_max=0.0 / nal_hrd=none / ip_ratio=1.40 / aq=1:1.00 Default : No Forced : No Audio #1 ID : 2 Format : AC-3 Format/Info : Audio Coding 3 Mode extension : CM (complete main) Format settings, Endianness : Big Codec ID : A_AC3 Duration : 1h 37mn Bit rate mode : Constant Bit rate : 640 Kbps Channel(s) : 6 channels Channel positions : Front: L C R, Side: L R, LFE Sampling rate : 48.0 KHz Bit depth : 16 bits Compression mode : Lossy Stream size : 445 MiB (5%) Title : wWw.Chamako.Net - Latino 5.1 Language : Spanish Default : Yes Forced : Yes Audio #2 ID : 3 Format : DTS Format/Info : Digital Theater Systems Mode : 16 Format settings, Endianness : Big Codec ID : A_DTS Duration : 1h 37mn Bit rate mode : Constant Bit rate : 1 510 Kbps Channel(s) : 6 channels Channel positions : Front: L C R, Side: L R, LFE Sampling rate : 48.0 KHz Bit depth : 24 bits Compression mode : Lossy Delay relative to video : 11ms Stream size : 1.03 GiB (12%) Title : wWw.Chamako.Net - English Language : English Default : No Forced : No Menu 00:00:00.000 : en:00:00:00.000 00:03:51.481 : en:00:03:51.481 00:10:34.843 : en:00:10:34.843 00:16:17.643 : en:00:16:17.643 00:24:49.363 : en:00:24:49.363 00:30:38.378 : en:00:30:38.378 00:36:38.947 : en:00:36:38.947 00:43:05.166 : en:00:43:05.166 00:50:22.311 : en:00:50:22.311 00:58:09.611 : en:00:58:09.611 01:03:55.331 : en:01:03:55.331 01:09:12.815 : en:01:09:12.815 01:14:03.189 : en:01:14:03.189 01:20:44.923 : en:01:20:44.923 01:24:51.503 : en:01:24:51.503 01:28:33.892 : en:01:28:33.892





3 ARCHIVO DE RECUPERACIÓN
Añadir el link al Jdownloader o MiPony, y empieza a descargar del host que mas te agrade
SERVIDORES DISPONIBLES
>>Enlace para Descargar El Origen De Los Guardianes (2012) 3D SBS BDRip 1080p Español Latino/Ingles 1 Link<<

El origen de los guardianes (2012)
CONTRASEÑA: chamako (todo minusculas)
Si Algun link cae solo enviame un MP con el link del post y lo resubiré
Descargar El Origen De Los Guardianes (2012) 3D SBS BDRip 1080p Español Latino/Ingles 1 link Gratis
348 Visitas
Dar puntos
+10
0 Puntos
Para poder comentar necesitas Registrarte. O ya tienes usuario?, Iniciar Sesión!
No hay comentarios. ¡Sé el primero!
Autor
Ver perfil de beamolpe beamolpe
Hombre Curioso Curioso  Seguir  Mensaje
3655 62 4
Nuevo Mensaje
Para:
Titulo: