Oz, Un Mundo De Fantasía TS-Screener/Cast Fantástico 2013 DD UL

  • PELICULAS Y SERIES | HACE 1 AñO
Oz, Un Mundo De Fantasía Dvdrip Latino 1 Link, Descargar Oz, Un Mundo De Fantasía 1 link Mega, Oz, Un Mundo De Fantasía DVD Full Latino peliculasyonkis, Oz, Un Mundo De Fantasía Cuevana.tv, Oz, Un Mundo De Fantasía pelicula completa, Oz, Un Mundo De Fantasía HD 1080P 720P Buena Calidad putlocker, Oz, Un Mundo De Fantasía latino HD Taringa, Oz, Un Mundo De Fantasía Bluray Brrip 1 Link, Oz, Un Mundo De Fantasía Español Gratis, Oz, Un Mundo De Fantasía Torrent Español
>>Enlace para Descargar Oz, Un Mundo De Fantasía TS-Screener/Cast Fantástico 2013 DD UL 1 Link<<





Título Original: Oz The Great And The Powerful
Director: Sam Raimi
Duración: 02:03:00
Estreno o Año: 08/03/2013
Género: Fantástico | Aventuras
País: Estados Unidos
Distribuidora/Productora: Walt Disney Pictures
Calificación: No recomendada para menores de 7 años
Reparto: James Franco, Mila Kunis, Rachel Weisz, Michelle Williams, Abigail Spencer, Zach Braff, Joey King, Bill Cobbs, Stephen R. Hart, Martin Klebba, Tony Cox, Otis Winston, Bruce Campbell, Ted Raimi, Tim Holmes, Toni Wynne, Rob Crites, John Paxton, William Dick
Sinopsis: Oz: The Great and Powerful (Oz, el Grande y Poderoso) recrea los orígenes del Mago de Oz, el popular personaje de Frank Baum. Oscar Diggs (James Franco), un mago de circo de poca monta y de dudosa reputación, tiene que abandonar la polvorienta Kansas y dirigirse al brillante País de Oz. Está convencido que le ha tocado el premio gordo y que la fama y la fortuna están a su alcance. Pero las cosas se tuercen cuando conoce a tres brujas: Theodora (Mila Kunis), Evanora (Rachel Weisz) y Glinda (Michelle Williams), que no están nada convencidas que Oscar sea el gran mago que todo el mundo esperaba ansiosamente. Oscar tiene que enfrentarse a todo tipo de problemas en el País de Oz y también a sus habitantes. Así que deberá averiguar lo antes posible quién es bueno y quién es malo. Oscar utiliza sus juegos de magia, con ingenio, fantasía y algo de brujería y además de transformarse en el gran y poderoso Mago de Oz se convertirá en un hombre mejor.
- Precuela del clásico film de 1939, El mago de Oz.



Calidad: TS-Screener
Idioma: Castellano Mic (Mp3)
Tamaño: AVI 1,87 Gb
Servidor: Uploaded.to


Spoiler

General
Complete name : 0028.avi
Format : AVI
Format/Info : Audio Video Interleave
File size : 1.87 GiB
Duration : 2h 3mn
Overall bit rate : 2 164 Kbps
Writing application : VirtualDubMod 1.5.10.2 (build 2540/release)
Writing library : VirtualDubMod build 2540/release
Video
ID : 0
Format : MPEG-4 Visual
Format profile : Advanced Simple@L5
Format settings, BVOP : 2
Format settings, QPel : No
Format settings, GMC : No warppoints
Format settings, Matrix : Default (H.263)
Muxing mode : Packed bitstream
Codec ID : XVID
Codec ID/Hint : XviD
Duration : 2h 3mn
Bit rate : 1 995 Kbps
Width : 720 pixels
Height : 340 pixels
Display aspect ratio : 2.118
Frame rate : 25.000 fps
Color space : YUV
Chroma subsampling : 4:2:0
Bit depth : 8 bits
Scan type : Progressive
Compression mode : Lossy
Bits/(Pixel*Frame) : 0.326
Stream size : 1.73 GiB (92%)
Writing library : XviD 64
Audio
ID : 1
Format : MPEG Audio
Format version : Version 1
Format profile : Layer 3
Codec ID : 55
Codec ID/Hint : MP3
Duration : 2h 3mn
Bit rate mode : Constant
Bit rate : 160 Kbps
Channel(s) : 2 channels
Sampling rate : 48.0 KHz
Compression mode : Lossy
Stream size : 142 MiB (7%)
Alignment : Aligned on interleaves
Interleave, duration : 40 ms (1.00 video frame)
Interleave, preload duration : 504 ms



>>Enlace para Descargar Oz, Un Mundo De Fantasía TS-Screener/Cast Fantástico 2013 DD UL 1 Link<<

http://www.dailymotion.com/swf/video/xv32ys



Descargar 1 link desde: Mediafire - Putlocker - Rapidshare - Hostgator




1 link, mirror y 4 links
Download Oz, Un Mundo De Fantasía (TS-Screener)
Descargar Oz, Un Mundo De Fantasía TS-Screener/Cast Fantástico 2013 DD UL 1 link Gratis
128 Visitas
Dar puntos
+10
0 Puntos
Para poder comentar necesitas Registrarte. O ya tienes usuario?, Iniciar Sesión!
No hay comentarios. ¡Sé el primero!
Autor
Ver perfil de claudi2118 claudi2118
Hombre Novato Novato  Seguir  Mensaje
5253 20 4
Nuevo Mensaje
Para:
Titulo: